Beitrags-Archiv für die Kategory 'Wrestling'

AEW.Rampage.2022.05.20.TNT.1080p.WEB.h264-HEEL

Samstag, 21. Mai 2022 4:43

0 votes, average: 0,00 out of 50 votes, average: 0,00 out of 50 votes, average: 0,00 out of 50 votes, average: 0,00 out of 50 votes, average: 0,00 out of 5 (0 votes, average: 0,00 out of 5)
You need to be a registered member to rate this.

AEW Rampage, also known as Friday Night Rampage or simply Rampage, is a professional wrestling television program produced by the American promotion All Elite Wrestling (AEW). It airs every Friday at 10pm Eastern Time (ET) on TNT in the United States. It is AEW’s second weekly television show, positioned behind their flagship show, Dynamite.

Spoiler

Title: AEW.Rampage.2022.05.20.TNT.1080p.WEB.h264-HEEL
Released: 2022.05.20
Source: WEB – TNT
Resolution: 1920 x 1080 @ 59.940 FPS
Video: H.264 @ 5441 kbps
Size: 2.27 GB
Runtime: 52mn 50sec

English: AC-3 @ 384 kbps
Spanish: AC-3 @ 192 kbps

Enjoy while it lasts.

Untouched/remuxed web stream.

[collapse]

Dauer: 52 Min | Format: MKV | Größe: 2270 MB

Thema: Show, Sport, Wrestling | Kommentare (0)

iMPACT.Wrestling.2022.05.19.1080p.WEB.h264-HEEL

Freitag, 20. Mai 2022 4:50

0 votes, average: 0,00 out of 50 votes, average: 0,00 out of 50 votes, average: 0,00 out of 50 votes, average: 0,00 out of 50 votes, average: 0,00 out of 5 (0 votes, average: 0,00 out of 5)
You need to be a registered member to rate this.

Impact Wrestling is a privately held American professional wrestling promotion founded by Jeff and Jerry Jarrett in 2002. It is owned as a subsidiary of the New York and Toronto-based integrated media organization Anthem Sports & Entertainment.

Spoiler

The road to SLAMMIVERSARY 2022 continues with a colossal rematch for the IMPACT World Tag Team Titles, as The Briscoes defend against Violent By Design. Honor No More’s Mike Bennett & Matt Taven battle The Bullet Club’s Good Brothers. In what promises to be a high-flying spectacle, Laredo Kid collides with “Speedball” Mike Bailey in an Ultimate X Qualifying match.

Title: iMPACT.Wrestling.2022.05.19.1080p.WEB.h264-HEEL
Released: 2022.05.19
Source: WEB
Resolution: 1920 x 1080 @ 29.970 FPS
Video: H.264 @ 7739 kbps
Audio: AAC @ 192 kbps
Size: 4.78 GB
Runtime: 1h 26mn

You know who it is.

Untouched/remuxed web stream.

[collapse]

Dauer: 96 Min | Format: MKV | Größe: 4780 MB

Thema: Show, Sport, Wrestling | Kommentare (0)

AEW.Dynamite.2022.05.18.TBS.1080p.WEB.h264-HEEL

Donnerstag, 19. Mai 2022 5:02

0 votes, average: 0,00 out of 50 votes, average: 0,00 out of 50 votes, average: 0,00 out of 50 votes, average: 0,00 out of 50 votes, average: 0,00 out of 5 (0 votes, average: 0,00 out of 5)
You need to be a registered member to rate this.

AEW Dynamite, also known as Wednesday Night Dynamite or simply Dynamite, is a professional wrestling television program produced by the American promotion All Elite Wrestling (AEW). It airs every Wednesday at 8pm Eastern Time (ET) on TBS. The show originally aired on TBS’s sister channel, TNT, from October 2019 to December 2021.

Spoiler

Title: AEW.Dynamite.2022.05.18.TBS.1080p.WEB.h264-HEEL
Released: 2022.05.18
Source: WEB – TBS
Resolution: 1920 x 1080 @ 59.940 FPS
Video: H.264 @ 5279 kbps
Size: 4.59 GB
Runtime: 1h 50mn

English: AC-3 @ 384 kbps
Spanish: AC-3 @ 192 kbps

Enjoy while it lasts.

Untouched/remuxed web stream.

[collapse]

Dauer: 110 Min | Format: MKV | Größe: 4590 MB

Thema: Show, Sport, Wrestling | Kommentare (0)

WWE.NXT.2022.05.17.USAN.1080p.WEB.h264-HEEL

Mittwoch, 18. Mai 2022 5:02

0 votes, average: 0,00 out of 50 votes, average: 0,00 out of 50 votes, average: 0,00 out of 50 votes, average: 0,00 out of 50 votes, average: 0,00 out of 5 (0 votes, average: 0,00 out of 5)
You need to be a registered member to rate this.

WWE NXT, also known as NXT 2.0 or simply NXT , is a professional wrestling television program. It is produced by the American professional wrestling promotion WWE, featuring performers from the promotion’s NXT brand division. The show currently airs live on Tuesdays at 8 pm Eastern Time on the USA Network.

Spoiler

Title: WWE.NXT.2022.05.17.USAN.1080p.WEB.h264-HEEL
Released: 2022.05.17
Source: WEB – USA Network
Resolution: 1920 x 1080 @ 59.940 FPS
Video: H.264 @ 6487 kbps
Audio: AC-3 @ 384 kbps
Size: 4.90 GB
Runtime: 1h 40mn

Enjoy while it lasts.

Untouched/remuxed web stream.

[collapse]

Dauer: 100 Min | Format: MKV | Größe: 4900 MB

Thema: Show, Sport, Wrestling | Kommentare (0)

WWE.RAW.2022.05.16.1080p.WEB.h264-HEEL

Dienstag, 17. Mai 2022 8:34

0 votes, average: 0,00 out of 50 votes, average: 0,00 out of 50 votes, average: 0,00 out of 50 votes, average: 0,00 out of 50 votes, average: 0,00 out of 5 (0 votes, average: 0,00 out of 5)
You need to be a registered member to rate this.

WWE Raw, also known as Monday Night Raw or simply Raw, is an American professional wrestling television program produced by WWE that currently airs live every Monday at 8pm ET on the USA Network in the United States. The show features characters from the Raw brand, to which WWE employees are assigned to work and perform. The show debuted on January 11, 1993 and is currently considered to be one of two flagship shows.

Spoiler

Title: WWE.RAW.2022.05.16.1080p.WEB.h264-HEEL
Released: 2022.05.16
Source: WEB – USA Network
Resolution: 1920 x 1080 @ 59.940 FPS
Video: H.264 @ 5886 kbps
Audio: AC-3 @ 384 kbps
Size: 5.92 GB
Runtime: 2h 12mn

Enjoy while it lasts.

Untouched/remuxed web stream.

[collapse]

Dauer: 132 Min | Format: MKV | Größe: 5920 MB

Thema: Show, Sport, Wrestling | Kommentare (0)

WWE.WrestleMania.Backlash.2022.PPV.Deutsch.Englisch.1080p.WEB.x264-GITA

Montag, 16. Mai 2022 13:00

0 votes, average: 0,00 out of 50 votes, average: 0,00 out of 50 votes, average: 0,00 out of 50 votes, average: 0,00 out of 50 votes, average: 0,00 out of 5 (0 votes, average: 0,00 out of 5)
You need to be a registered member to rate this.

08.05.2022 Providence, Rhode Island

WWE SmackDown Women’s Title I Quit Match
Charlotte Flair (c) vs. Ronda Rousey

Singles Match
Happy Corbin vs. Madcap Moss

Singles Match
Seth Rollins vs. Cody Rhodes

Singles Match
Bobby Lashley vs. Omos

Singles Match
AJ Styles vs. Edge

Six Person Tag Team Match
Drew McIntyre & RK-Bro vs. The Bloodline

Spoiler

General
Complete Name : WWE WrestleMania Backlash 2022 PPV Deutsch Englisch 1080p WEB x264-GITA.mkv
Format : Matroska
Format version : Version 4
File size : 9.85 GiB
Duration : 2 h 53 min
Overall bit rate : 8 141 kb/s
Encoded date : UTC 2022-05-09 15:38:42
Writing application : mkvmerge v66.0.0 (‘Josie’) 64-bit
Writing library : libebml v1.4.2 + libmatroska v1.6.4

Video
ID : 1
Format : AVC
Format/Info : Advanced Video Codec
Format profile : [email protected]
Format settings : CABAC / 4 Ref Frames
Format settings, CABAC : Yes
Format settings, Reference frames : 4 frames
Codec ID : V_MPEG4/ISO/AVC
Duration : 2 h 53 min
Bit rate : 7 808 kb/s
Width : 1 920 pixels
Height : 1 080 pixels
Display aspect ratio : 16:9
Frame rate mode : Constant
Frame rate : 30.000 FPS
Color space : YUV
Chroma subsampling : 4:2:0
Bit depth : 8 bits
Scan type : Progressive
Bits/(Pixel*Frame) : 0.126
Stream size : 9.38 GiB (95%)
Writing library : x264 core 148 r2643 5c65704
Encoding settings : cabac=1 / ref=2 / deblock=1:0:0 / analyse=0x3:0x113 / me=hex / subme=6 / psy=1 / psy_rd=1.00:0.00 / mixed_ref=1 / me_range=16 / chroma_me=1 / trellis=1 / 8x8dct=1 / cqm=0 / deadzone=21,11 / fast_pskip=1 / chroma_qp_offset=-2 / threads=24 / lookahead_threads=4 / sliced_threads=0 / nr=0 / decimate=1 / interlaced=0 / bluray_compat=0 / constrained_intra=0 / bframes=2 / b_pyramid=2 / b_adapt=1 / b_bias=0 / direct=1 / weightb=1 / open_gop=0 / weightp=1 / keyint=60 / keyint_min=31 / scenecut=0 / intra_refresh=0 / rc_lookahead=30 / rc=2pass / mbtree=1 / bitrate=7808 / ratetol=1.0 / qcomp=0.60 / qpmin=0 / qpmax=69 / qpstep=4 / cplxblur=20.0 / qblur=0.5 / vbv_maxrate=7808 / vbv_bufsize=15616 / nal_hrd=none / filler=0 / ip_ratio=1.40 / aq=1:1.00
Default : Yes
Forced : No

Audio #1
ID : 2
Format : AAC LC
Format/Info : Advanced Audio Codec Low Complexity
Codec ID : A_AAC-2
Duration : 2 h 53 min
Bit rate : 192 kb/s
Channel(s) : 2 channels
Channel layout : L R
Sampling rate : 48.0 kHz
Frame rate : 46.875 FPS (1024 SPF)
Compression mode : Lossy
Stream size : 238 MiB (2%)
Language : English
Default : No
Forced : No

Audio #2
ID : 3
Format : AAC LC
Format/Info : Advanced Audio Codec Low Complexity
Codec ID : A_AAC-2
Duration : 2 h 53 min
Bit rate : 192 kb/s
Channel(s) : 2 channels
Channel layout : L R
Sampling rate : 48.0 kHz
Frame rate : 46.875 FPS (1024 SPF)
Compression mode : Lossy
Stream size : 239 MiB (2%)
Language : German
Default : Yes
Forced : No

[collapse]


Dauer: | Format: MKV | Größe: 10091 MB | IMDb: WWE WrestleMania Backlash| YouTube | xRel

Thema: HD-Sport, Wrestling | Kommentare (0)

WWE.Smackdown.2022-05-14.German.720p.HDTV.x264-HOMEMADE

Montag, 16. Mai 2022 12:58

0 votes, average: 0,00 out of 50 votes, average: 0,00 out of 50 votes, average: 0,00 out of 50 votes, average: 0,00 out of 50 votes, average: 0,00 out of 5 (0 votes, average: 0,00 out of 5)
You need to be a registered member to rate this.

WWE SmackDown! (oder auch SmackDownLive) ist eine US-amerikanische
Wrestling-Show, die von der WWE produziert wird. Die Show wurde bis zum
31. Dezember 2015 wöchentlich donnerstagsabends (vor dem 15. Januar 2015
freitagabends) bei Syfy ausgestrahlt. Mit Beginn des Jahres 2016 wechselte
sie zum USA Network wo ebenfalls die Hauptshow WWE RAW zu sehen ist. Seit
dem 19. Juli 2016 wird SmackDown! in den USA dienstags live ausgestrahlt.
In Deutschland wurde SmackDown von März 2011 bis März 2014 freitags
komplett und in HDTV bei Sky Deutschland übertragen. ProSieben Maxx sendet
samstags eine für den deutschsprachigen Markt angepasste Version,
ebenfalls wahlweise in HDTV.

Spoiler

WWE.Smackdown.2022-05-14.German.720p.HDTV.x264-HOMEMADE

RELEASE.DATE.: 15.05.2022 PROFiLE……: High 4.1 CRF 25
RUNNiNG TiME.: 01h:31m:14s AUDiO……..: AAC LC VBR 2CH
SiZE………: 1736 MiB BiTRATE……: 2533kbit/125kbit
LANGUAGE…..: German FORMAT…….: x264 r3094 25 FPS
SUBTiTLES….: N/A ViDEO.RES….: 16:9 @ 1280×720
SOURCE…….: DVB-C Pro7 MAXX HD FSK……….: 16

[collapse]


Dauer: | Format: MKV | Größe: 1736 MB | IMDb: WWE Smackdown 2022-05-14| YouTube | xRel

Thema: HD-Sport, Wrestling | Kommentare (0)

WWE.Smackdown.14.05.2022.Deutsch.1080i.HDTV.x264-GITA

Montag, 16. Mai 2022 12:56

0 votes, average: 0,00 out of 50 votes, average: 0,00 out of 50 votes, average: 0,00 out of 50 votes, average: 0,00 out of 50 votes, average: 0,00 out of 5 (0 votes, average: 0,00 out of 5)
You need to be a registered member to rate this.

WWE SmackDown! (oder auch SmackDownLive) ist eine US-amerikanische Wrestling-Show, die von der WWE produziert wird. Die Show wurde bis zum 31. Dezember 2015 wöchentlich donnerstagsbends (vor dem 15. Januar 2015 freitagabends) bei Syfy ausgestrahlt. Mit Beginn des Jahres 2016 wechselte sie zum USA Network wo ebenfalls die Hauptshow WWE RAW zu sehen ist. Seit dem 19. Juli 2016 wird SmackDown! in den USA dienstags live ausgestrahlt. In Deutschland wurde SmackDown von März 2011 bis März 2014 freitags komplett und in HDTV bei Sky Deutschland übertragen. Seit dem 5. April 2014 sendet ProSieben Maxx freitags eine für den deutschsprachigen Markt angepasste Version, ebenfalls wahlweise in HDTV.

Spoiler

General
Complete Name : WWE Smackdown 14.05.2022 Deutsch 1080i HDTV x264-GITA.mkv
Format : Matroska
Format version : Version 4
File size : 7.50 GiB
Duration : 1 h 31 min
Overall bit rate : 11.8 Mb/s
Writing application : Lavf58.29.100
Writing library : Lavf58.29.100
ErrorDetectionType : Per level 1

Video
ID : 1
Format : AVC
Format/Info : Advanced Video Codec
Format profile : [email protected]
Format settings : CABAC / 4 Ref Frames
Format settings, CABAC : Yes
Format settings, Reference frames : 4 frames
Codec ID : V_MPEG4/ISO/AVC
Duration : 1 h 31 min
Bit rate : 11.1 Mb/s
Width : 1 920 pixels
Height : 1 080 pixels
Display aspect ratio : 16:9
Frame rate mode : Constant
Frame rate : 25.000 FPS
Standard : Component
Color space : YUV
Chroma subsampling : 4:2:0
Bit depth : 8 bits
Scan type : Interlaced
Scan type, store method : Separated fields
Scan order : Top Field First
Bits/(Pixel*Frame) : 0.215
Stream size : 7.10 GiB (95%)
Default : Yes
Forced : No
Color range : Limited
Color primaries : BT.709
Transfer characteristics : BT.709
Matrix coefficients : BT.709

Audio
ID : 2
Format : AC-3
Format/Info : Audio Coding 3
Commercial name : Dolby Digital
Codec ID : A_AC3
Duration : 1 h 31 min
Bit rate mode : Constant
Bit rate : 384 kb/s
Channel(s) : 2 channels
Channel layout : L R
Sampling rate : 48.0 kHz
Frame rate : 31.250 FPS (1536 SPF)
Compression mode : Lossy
Delay relative to video : 8 ms
Stream size : 251 MiB (3%)
Language : German
Service kind : Complete Main
Default : Yes
Forced : No

[collapse]


Dauer: | Format: MKV | Größe: 7677 MB | IMDb: WWE Smackdown 14.05.2022 Deutsch 1080i| YouTube | xRel

Thema: HD-Sport, Wrestling | Kommentare (0)

WWE.RAW.2022-05-11.German.720p.HDTV.x264-HOMEMADE

Montag, 16. Mai 2022 12:54

0 votes, average: 0,00 out of 50 votes, average: 0,00 out of 50 votes, average: 0,00 out of 50 votes, average: 0,00 out of 50 votes, average: 0,00 out of 5 (0 votes, average: 0,00 out of 5)
You need to be a registered member to rate this.

WWE Raw ist eine Wrestling-Show, die seit dem 11. Januar 1993 von der WWE
produziert und traditionell jeden Montagabend live gesendet wird. WWE RAW
wird aufgrund seiner langen Geschichte, hohen Einschaltquoten und
Beteiligung bei Pay-per-Views als Flaggschiff der WWE angesehen.
Die Sendung lief von 1993 bis 2000 auf USA Network, von 2000 bis 2005 auf
Spike TV und wird seit 2005 erneut auf USA Network ausgestrahlt.
ProSieben Maxx sendet mittwochs eine f?r den deutschsprachigen Markt
angepasste Version, ebenfalls wahlweise in HDTV.

Spoiler

WWE.RAW.2022-05-11.German.720p.HDTV.x264-HOMEMADE

RELEASE.DATE.: 12.05.2022 PROFiLE……: High 4.1 CRF 25
RUNNiNG TiME.: 01h:35m:54s AUDiO……..: AAC LC VBR 2CH
SiZE………: 1770 MiB BiTRATE……: 2455kbit/124kbit
LANGUAGE…..: German FORMAT…….: x264 r3094 25 FPS
SUBTiTLES….: N/A ViDEO.RES….: 16:9 @ 1280×720
SOURCE…….: DVB-C Pro7 MAXX HD FSK……….: 16

[collapse]


Dauer: | Format: MKV | Größe: 1770 MB | IMDb: WWE RAW 2022-05-11| YouTube | xRel

Thema: HD-Sport, Wrestling | Kommentare (0)

AEW.Dynamite.13.05.2022.Deutsch.Englisch.1080i.HDTV.x264-GITA

Montag, 16. Mai 2022 12:51

0 votes, average: 0,00 out of 50 votes, average: 0,00 out of 50 votes, average: 0,00 out of 50 votes, average: 0,00 out of 50 votes, average: 0,00 out of 5 (0 votes, average: 0,00 out of 5)
You need to be a registered member to rate this.

All Elite Wrestling (kurz: AEW) ist eine US-amerikanische Wrestling-Promotion. Das Unternehmen mit Sitz in Jacksonville, Florida, Vereinigte Staaten wurde 2019 von Tony Khan gegründet. Die erste Veranstaltung AEW Double or Nothing fand am 25. Mai 2019 in Las Vegas, Nevada statt.

Spoiler

General
Complete Name : AEW Dynamite 13.05.2022 Deutsch Englisch 1080i HDTV x264-GITA.mkv
Format : Matroska
Format version : Version 4
File size : 6.49 GiB
Duration : 1 h 36 min
Overall bit rate : 9 623 kb/s
Writing application : Lavf58.29.100
Writing library : Lavf58.29.100
ErrorDetectionType : Per level 1

Video
ID : 1
Format : AVC
Format/Info : Advanced Video Codec
Format profile : [email protected]
Format settings : CABAC / 4 Ref Frames
Format settings, CABAC : Yes
Format settings, Reference frames : 4 frames
Codec ID : V_MPEG4/ISO/AVC
Duration : 1 h 36 min
Bit rate : 8 664 kb/s
Width : 1 920 pixels
Height : 1 080 pixels
Display aspect ratio : 16:9
Frame rate mode : Constant
Frame rate : 25.000 FPS
Standard : Component
Color space : YUV
Chroma subsampling : 4:2:0
Bit depth : 8 bits
Scan type : MBAFF
Scan type, store method : Separated fields
Scan order : Top Field First
Bits/(Pixel*Frame) : 0.167
Stream size : 5.84 GiB (90%)
Default : Yes
Forced : No
Color range : Limited

Audio #1
ID : 2
Format : AC-3
Format/Info : Audio Coding 3
Commercial name : Dolby Digital
Codec ID : A_AC3
Duration : 1 h 36 min
Bit rate mode : Constant
Bit rate : 384 kb/s
Channel(s) : 2 channels
Channel layout : L R
Sampling rate : 48.0 kHz
Frame rate : 31.250 FPS (1536 SPF)
Compression mode : Lossy
Delay relative to video : 6 ms
Stream size : 265 MiB (4%)
Language : German
Service kind : Complete Main
Default : Yes
Forced : No

Audio #2
ID : 3
Format : AC-3
Format/Info : Audio Coding 3
Commercial name : Dolby Digital
Codec ID : A_AC3
Duration : 1 h 36 min
Bit rate mode : Constant
Bit rate : 384 kb/s
Channel(s) : 2 channels
Channel layout : L R
Sampling rate : 48.0 kHz
Frame rate : 31.250 FPS (1536 SPF)
Compression mode : Lossy
Delay relative to video : 4 ms
Stream size : 265 MiB (4%)
Language : English
Service kind : Complete Main
Default : Yes
Forced : No

[collapse]


Dauer: | Format: MKV | Größe: 6642 MB | IMDb: AEW Dynamite 13.05.2022 Deutsch Englisch 1080i| YouTube | xRel

Thema: HD-Sport, Wrestling | Kommentare (0)

AEW.Rampage.10.05.2022.Deutsch.Englisch.1080i.HDTV.x264-GITA

Montag, 16. Mai 2022 12:49

0 votes, average: 0,00 out of 50 votes, average: 0,00 out of 50 votes, average: 0,00 out of 50 votes, average: 0,00 out of 50 votes, average: 0,00 out of 5 (0 votes, average: 0,00 out of 5)
You need to be a registered member to rate this.

All Elite Wrestling (kurz: AEW) ist eine US-amerikanische Wrestling-Promotion. Das Unternehmen mit Sitz in Jacksonville, Florida, Vereinigte Staaten wurde 2019 von Tony Khan gegründet. Die erste Veranstaltung AEW Double or Nothing fand am 25. Mai 2019 in Las Vegas, Nevada statt.

Spoiler

General
Complete Name : AEW Rampage 10.05.2022 Deutsch Englisch 1080i HDTV x264-GITA.mkv
Format : Matroska
Format version : Version 4
File size : 3.57 GiB
Duration : 44 min 0 s
Overall bit rate : 11.6 Mb/s
Writing application : Lavf58.29.100
Writing library : Lavf58.29.100
ErrorDetectionType : Per level 1

Video
ID : 1
Format : AVC
Format/Info : Advanced Video Codec
Format profile : [email protected]
Format settings : CABAC / 4 Ref Frames
Format settings, CABAC : Yes
Format settings, Reference frames : 4 frames
Codec ID : V_MPEG4/ISO/AVC
Duration : 43 min 59 s
Bit rate : 10.6 Mb/s
Width : 1 920 pixels
Height : 1 080 pixels
Display aspect ratio : 16:9
Frame rate mode : Constant
Frame rate : 25.000 FPS
Standard : Component
Color space : YUV
Chroma subsampling : 4:2:0
Bit depth : 8 bits
Scan type : MBAFF
Scan type, store method : Separated fields
Scan order : Top Field First
Bits/(Pixel*Frame) : 0.205
Stream size : 3.26 GiB (91%)
Default : Yes
Forced : No
Color range : Limited

Audio #1
ID : 2
Format : AC-3
Format/Info : Audio Coding 3
Commercial name : Dolby Digital
Codec ID : A_AC3
Duration : 43 min 59 s
Bit rate mode : Constant
Bit rate : 384 kb/s
Channel(s) : 2 channels
Channel layout : L R
Sampling rate : 48.0 kHz
Frame rate : 31.250 FPS (1536 SPF)
Compression mode : Lossy
Delay relative to video : 20 ms
Stream size : 121 MiB (3%)
Language : German
Service kind : Complete Main
Default : Yes
Forced : No

Audio #2
ID : 3
Format : AC-3
Format/Info : Audio Coding 3
Commercial name : Dolby Digital
Codec ID : A_AC3
Duration : 43 min 59 s
Bit rate mode : Constant
Bit rate : 384 kb/s
Channel(s) : 2 channels
Channel layout : L R
Sampling rate : 48.0 kHz
Frame rate : 31.250 FPS (1536 SPF)
Compression mode : Lossy
Delay relative to video : 20 ms
Stream size : 121 MiB (3%)
Language : English
Service kind : Complete Main
Default : Yes
Forced : No

[collapse]


Dauer: | Format: MKV | Größe: 3657 MB | IMDb: AEW Rampage 10.05.2022 Deutsch Englisch 1080i| YouTube | xRel

Thema: HD-Sport, Wrestling | Kommentare (0)

WWE.SmackDown.2022.05.13.720p.WEB.h264-HEEL

Samstag, 14. Mai 2022 5:29

0 votes, average: 0,00 out of 50 votes, average: 0,00 out of 50 votes, average: 0,00 out of 50 votes, average: 0,00 out of 50 votes, average: 0,00 out of 5 (0 votes, average: 0,00 out of 5)
You need to be a registered member to rate this.

American professional wrestling television program produced by WWE that currently airs live every Friday Night at 8pm ET on Fox. Fox Deportes simulcasts the program with Spanish-language commentary. The show features characters from the SmackDown brand, to which WWE employees are assigned to work and perform. The show is currently considered to be one of two flagship shows, along with Monday Night Raw

Spoiler

Title: WWE.SmackDown.2022.05.13.720p.WEB.h264-HEEL
Released: 2022.05.13
Source: WEB – FOX
Resolution: 1280 x 720 @ 59.940 FPS
Video: H.264 @ 5958 kbps
Audio: HE-AAC @ 62 kbps
Size: 3.70 GB
Runtime: 1h 28mn

You know who it is.

Untouched/remuxed web stream.

[collapse]

Dauer: 88 Min | Format: MKV | Größe: 3700 MB

Thema: Show, Sport, Wrestling | Kommentare (0)

AEW.Rampage.2022.05.13.TNT.1080p.WEB.h264-HEEL

Samstag, 14. Mai 2022 5:29

0 votes, average: 0,00 out of 50 votes, average: 0,00 out of 50 votes, average: 0,00 out of 50 votes, average: 0,00 out of 50 votes, average: 0,00 out of 5 (0 votes, average: 0,00 out of 5)
You need to be a registered member to rate this.

AEW Rampage, also known as Friday Night Rampage or simply Rampage, is a professional wrestling television program produced by the American promotion All Elite Wrestling (AEW). It airs every Friday at 10pm Eastern Time (ET) on TNT in the United States. It is AEW’s second weekly television show, positioned behind their flagship show, Dynamite.

Spoiler

Title: AEW.Rampage.2022.05.13.TNT.1080p.WEB.h264-HEEL
Released: 2022.05.13
Source: WEB – TNT
Resolution: 1920 x 1080 @ 59.940 FPS
Video: H.264 @ 5567 kbps
Size: 2.28 GB
Runtime: 52mn 02sec

English: AC-3 @ 384 kbps
Spanish: AC-3 @ 192 kbps

Enjoy while it lasts.

Untouched/remuxed web stream.

[collapse]

Dauer: 52 Min | Format: MKV | Größe: 2280 MB

Thema: Show, Sport, Wrestling | Kommentare (0)

iMPACT.Wrestling.2022.05.12.1080p.WEB.h264-HEEL

Freitag, 13. Mai 2022 4:57

0 votes, average: 0,00 out of 50 votes, average: 0,00 out of 50 votes, average: 0,00 out of 50 votes, average: 0,00 out of 50 votes, average: 0,00 out of 5 (0 votes, average: 0,00 out of 5)
You need to be a registered member to rate this.

Impact Wrestling is a privately held American professional wrestling promotion founded by Jeff and Jerry Jarrett in 2002. It is owned as a subsidiary of the New York and Toronto-based integrated media organization Anthem Sports & Entertainment.

Spoiler

The Gauntlet for the Gold returns on this week’s edition of IMPACT! with the winner earning an IMPACT World Championship opportunity against “The Walking Weapon” Josh Alexander at SLAMMIVERSARY 2022 on June 19th only on pay-per-view. Champion and challenger from this past Saturday’s World Title main event at UNDER SIEGE will team up, as Josh Alexander and New Japan Pro-Wrestling legend Tomohiro Ishii join forces against The Bullet Club’s Jay White and El Phantasmo.

Title: iMPACT.Wrestling.2022.05.12.1080p.WEB.h264-HEEL
Released: 2022.05.12
Source: WEB
Resolution: 1920 x 1080 @ 29.970 FPS
Video: H.264 @ 7848 kbps
Audio: AAC @ 192 kbps
Size: 4.84 GB
Runtime: 1h 26mn

You know who it is.

Untouched/remuxed web stream.

[collapse]

Dauer: 96 Min | Format: MKV | Größe: 4840 MB

Thema: Show, Sport, Wrestling | Kommentare (0)

AEW.Dynamite.2022.05.11.TBS.1080p.WEB.h264-HEEL

Donnerstag, 12. Mai 2022 5:00

0 votes, average: 0,00 out of 50 votes, average: 0,00 out of 50 votes, average: 0,00 out of 50 votes, average: 0,00 out of 50 votes, average: 0,00 out of 5 (0 votes, average: 0,00 out of 5)
You need to be a registered member to rate this.

AEW Dynamite, also known as Wednesday Night Dynamite or simply Dynamite, is a professional wrestling television program produced by the American promotion All Elite Wrestling (AEW). It airs every Wednesday at 8pm Eastern Time (ET) on TBS. The show originally aired on TBS’s sister channel, TNT, from October 2019 to December 2021.

Spoiler

Title: AEW.Dynamite.2022.05.11.TBS.1080p.WEB.h264-HEEL
Released: 2022.05.11
Source: WEB – TBS
Resolution: 1920 x 1080 @ 59.940 FPS
Video: H.264 @ 5291 kbps
Size: 4.56 GB
Runtime: 1h 49mn

English: AC-3 @ 384 kbps
Spanish: AC-3 @ 192 kbps

Enjoy while it lasts.

Untouched/remuxed web stream.

[collapse]

Dauer: 109 Min | Format: MKV | Größe: 4560 MB

Thema: Show, Sport, Wrestling | Kommentare (0)

WWE.NXT.2022.05.10.USAN.1080p.WEB.h264-HEEL

Mittwoch, 11. Mai 2022 4:57

0 votes, average: 0,00 out of 50 votes, average: 0,00 out of 50 votes, average: 0,00 out of 50 votes, average: 0,00 out of 50 votes, average: 0,00 out of 5 (0 votes, average: 0,00 out of 5)
You need to be a registered member to rate this.

WWE NXT, also known as NXT 2.0 or simply NXT , is a professional wrestling television program. It is produced by the American professional wrestling promotion WWE, featuring performers from the promotion’s NXT brand division. The show currently airs live on Tuesdays at 8 pm Eastern Time on the USA Network.

Spoiler

Title: WWE.NXT.2022.05.10.USAN.1080p.WEB.h264-HEEL
Released: 2022.05.10
Source: WEB – USA Network
Resolution: 1920 x 1080 @ 59.940 FPS
Video: H.264 @ 6190 kbps
Audio: AC-3 @ 384 kbps
Size: 4.72 GB
Runtime: 1h 41mn

Enjoy while it lasts.

Untouched/remuxed web stream.

[collapse]

Dauer: 96 Min | Format: MKV | Größe: 7860 MB

Thema: Show, Sport, Wrestling | Kommentare (0)

WWE.RAW.2022.05.09.1080p.WEB.h264-HEEL

Dienstag, 10. Mai 2022 7:56

0 votes, average: 0,00 out of 50 votes, average: 0,00 out of 50 votes, average: 0,00 out of 50 votes, average: 0,00 out of 50 votes, average: 0,00 out of 5 (0 votes, average: 0,00 out of 5)
You need to be a registered member to rate this.

WWE Raw, also known as Monday Night Raw or simply Raw, is an American professional wrestling television program produced by WWE that currently airs live every Monday at 8pm ET on the USA Network in the United States. The show features characters from the Raw brand, to which WWE employees are assigned to work and perform. The show debuted on January 11, 1993 and is currently considered to be one of two flagship shows.

Spoiler

Title: WWE.RAW.2022.05.09.1080p.WEB.h264-HEEL
Released: 2022.05.09
Source: WEB – USA Network
Resolution: 1920 x 1080 @ 59.940 FPS
Video: H.264 @ 5938 kbps
Audio: AC-3 @ 384 kbps
Size: 5.92 GB
Runtime: 2h 11mn

Enjoy while it lasts.

Untouched/remuxed web stream.

[collapse]

Dauer: 131 Min | Format: MKV | Größe: 5990 MB

Thema: Show, Sport, Wrestling | Kommentare (0)

WWE.WrestleMania.Backlash.2022.German.720p.WebRip.x264-iND

Montag, 9. Mai 2022 6:16

0 votes, average: 0,00 out of 50 votes, average: 0,00 out of 50 votes, average: 0,00 out of 50 votes, average: 0,00 out of 50 votes, average: 0,00 out of 5 (0 votes, average: 0,00 out of 5)
You need to be a registered member to rate this.

WWE Backlash, seit 2021 als WrestleMania Backlash bekannt, ist ein professionelles Wrestling-Event, das von WWE, einer professionellen Wrestling-Promotion mit Sitz in Connecticut, produziert wird.

Spoiler

General : WWE.WrestleMania.Backlash.2022.German.720p.WebRip.x264-iND.mp4
Format : MPEG-4 at 4 513 Kbps
Length : 5,46 GiB for 2h 53min 17s 634ms

Video #0 : AVC at 4 378 Kbps
Aspect : 1280 x 720 (1.778) at 30.000 fps

Audio #0 : AAC at 125 Kbps
Infos : 2 Kanäle, 48,0 KHz

Text #0 : EIA-608

Text #1 : EIA-608

Text #2 : EIA-708

Text #3 : EIA-708

[collapse]

Dauer: 173 Min | Format: MKV | Größe: 5460 MB |

Thema: Show, Sport, Wrestling | Kommentare (0)

AEW.Rampage.2022.05.06.TNT.1080p.WEB.h264-HEEL

Samstag, 7. Mai 2022 5:11

0 votes, average: 0,00 out of 50 votes, average: 0,00 out of 50 votes, average: 0,00 out of 50 votes, average: 0,00 out of 50 votes, average: 0,00 out of 5 (0 votes, average: 0,00 out of 5)
You need to be a registered member to rate this.

AEW Rampage, also known as Friday Night Rampage or simply Rampage, is a professional wrestling television program produced by the American promotion All Elite Wrestling (AEW). It airs every Friday at 10pm Eastern Time (ET) on TNT in the United States. It is AEW’s second weekly television show, positioned behind their flagship show, Dynamite.

Spoiler

Title: AEW.Rampage.2022.05.06.TNT.1080p.WEB.h264-HEEL
Released: 2022.05.06
Source: WEB – TNT
Resolution: 1920 x 1080 @ 59.940 FPS
Video: H.264 @ 5437 kbps
Size: 2.26 GB
Runtime: 52mn 01sec

English: AC-3 @ 384 kbps
Spanish: AC-3 @ 192 kbps

Enjoy while it lasts.

Untouched/remuxed web stream.

[collapse]

Dauer: 52 Min | Format: MKV | Größe: 2260 MB

Thema: Show, Sport, Wrestling | Kommentare (0)

WWE.SmackDown.2022.05.06.720p.WEB.h264-HEEL

Samstag, 7. Mai 2022 5:10

0 votes, average: 0,00 out of 50 votes, average: 0,00 out of 50 votes, average: 0,00 out of 50 votes, average: 0,00 out of 50 votes, average: 0,00 out of 5 (0 votes, average: 0,00 out of 5)
You need to be a registered member to rate this.

American professional wrestling television program produced by WWE that currently airs live every Friday Night at 8pm ET on Fox. Fox Deportes simulcasts the program with Spanish-language commentary. The show features characters from the SmackDown brand, to which WWE employees are assigned to work and perform. The show is currently considered to be one of two flagship shows, along with Monday Night Raw

Spoiler

Title: WWE.SmackDown.2022.05.06.720p.WEB.h264-HEEL
Released: 2022.05.06
Source: WEB – FOX
Resolution: 1280 x 720 @ 59.940 FPS
Video: H.264 @ 5974 kbps
Audio: HE-AAC @ 62 kbps
Size: 3.68 GB
Runtime: 1h 27mn

You know who it is.

Untouched/remuxed web stream.

[collapse]

Dauer: 87 Min | Format: MKV | Größe: 3680 MB

Thema: Show, Sport, Wrestling | Kommentare (0)