Bullet.Train.2022.German.MD.720p.TS.x265-Sneakman

0 votes, average: 0,00 out of 50 votes, average: 0,00 out of 50 votes, average: 0,00 out of 50 votes, average: 0,00 out of 50 votes, average: 0,00 out of 5 (0 votes, average: 0,00 out of 5)
You need to be a registered member to rate this.

Bullet Train: So wird der Shinkansen-Zug auf der Strecke Tokio – Kyōto auch genannt, da er mit unglaublichen 320 Kilometern pro Stunde und ohne Zwischenstopp zwischen den beiden Städten hin und her rast. Aussteigen unmöglich. An Bord des Shinkansen ist auch Ladybug (Brad Pitt), ein vom Pech verfolgter Auftragskiller, der im Hochgeschwindigkeitszug sein nächstes Opfer erledigen soll. Nach einigen Rückschlägen für Ladybug muss dieses Mal einfach alles gut gehen. Doch auch dieser Auftrag wird nicht einfach, denn mit Tangerine (Aaron Taylor-Johnson), Prince (Joey King), Hornet (Zazie Beetz), Lemon (Brian Tyree Henry) und Kimura (Andrew Koji) sind noch fünf weitere Auftragskiller an Bord. Erstaunlicherweise haben es nicht alle auf die gleiche Zielperson abgesehen – und doch scheinen ihre Aufträge miteinander verbunden. Natürlich kommen sich die eiskalten Auftragsmörder in die Quere und im Hochgeschwindigkeitszug entbrennt ein chaotischer Kampf auf Leben und Tod.

Spoiler

___ ‘___
/ \I/ ‘\
____ | ‘|
_ — | \ | ‘|
— | / | ‘|
~~~~ \_________/

“-._
______________________—“__,-‘___ __________________________________
_,-‘/| #### | | #### || _ ______________________________
_-‘ | | |||O||____||____||____||_____||_____
(_——————————–DB——|||_|—–DB————————
\——(o)~~~~(o)————(o)~~~~(o)–‘`—(o)~~~(o)———————-
InterCityExpress DB 401 (1990), 280 km/h, 9600 kW

Sneakman pres.
——

Film : Bullet Train
Releasedate : 05.08.2022
Kinostart : 04.08.2022
IMDB : https://www.imdb.com/title/tt12593682/
VIDEO : TS 720P ( werbung wurde entfernt , ausser die Hardcoded)
AUDIO : GERMAN MIC DUBBED / ENGLISH

————–
Plot :
Ein Ex-Killer besteigt einen Hochgeschwindigkeitszug, in dem auch ein Mann sitzt,
mit dem er eine Rechnung offen hat. Der Ex-Killer will Rache dafür nehmen,
was seinem Sohn angetan wurde.

——————–

Bullet.Train.2022.German.MD.720p.TS.x265-Sneakman.mkv
Format : Matroska
Format version : Version 4
File size : 2.82 GiB
Duration : 1 h 59 min
Overall bit rate : 3 387 kb/s
Encoded date : UTC 2022-08-04 22:28:27
Writing application : mkvmerge v68.0.0 (‘The Curtain’) 64-bit
Writing library : libebml v1.4.2 + libmatroska v1.6.4

Video
ID : 1
Format : AVC
Format/Info : Advanced Video Codec
Format profile : [email protected]
Format settings : CABAC / 1 Ref Frames
Format settings, CABAC : Yes
Format settings, Reference frames : 1 frame
Format settings, GOP : M=1, N=24
Codec ID : V_MPEG4/ISO/AVC
Duration : 1 h 59 min
Bit rate : 3 000 kb/s
Width : 1 280 pixels
Height : 484 pixels
Display aspect ratio : 2.645
Frame rate mode : Constant
Frame rate : 24.000 FPS
Color space : YUV
Chroma subsampling : 4:2:0
Bit depth : 8 bits
Scan type : Progressive
Bits/(Pixel*Frame) : 0.202
Stream size : 2.50 GiB (89%)
Default : Yes
Forced : No
Color range : Limited
Color primaries : BT.709
Transfer characteristics : BT.709
Matrix coefficients : BT.709

Audio #1
ID : 2
Format : AAC LC
Format/Info : Advanced Audio Codec Low Complexity
Codec ID : A_AAC-2
Duration : 1 h 59 min
Bit rate : 192 kb/s
Channel(s) : 2 channels
Channel layout : L R
Sampling rate : 48.0 kHz
Frame rate : 46.875 FPS (1024 SPF)
Compression mode : Lossy
Stream size : 164 MiB (6%)
Language : English
Default : No
Forced : No

Audio #2
ID : 3
Format : E-AC-3
Format/Info : Enhanced AC-3
Commercial name : Dolby Digital Plus
Codec ID : A_EAC3
Duration : 1 h 59 min
Bit rate mode : Constant
Bit rate : 192 kb/s
Channel(s) : 2 channels
Channel layout : L R
Sampling rate : 48.0 kHz
Frame rate : 31.250 FPS (1536 SPF)
Compression mode : Lossy
Stream size : 164 MiB (6%)
Language : German
Service kind : Complete Main
Default : Yes
Forced : Yes

[collapse]


Dauer: 120 Min | Format: x265 | Größe: 2888 MB | IMDb: 7.5/10| YouTube | xRel

Tags »

Datum: Freitag, 5. August 2022 15:38
Trackback: Trackback-URL Themengebiet: +++Top Releases+++, Action, Thriller

Feed zum Beitrag: RSS 2.0 Diesen Artikel kommentieren

Kommentar abgeben

© 2020-2022 Movieblogarea.com | All Rights Reserved.