DC.League.of.Super-Pets.2022.German.MD.1080p.TELESYNC.x265-Sneakman

0 votes, average: 0,00 out of 50 votes, average: 0,00 out of 50 votes, average: 0,00 out of 50 votes, average: 0,00 out of 50 votes, average: 0,00 out of 5 (0 votes, average: 0,00 out of 5)
You need to be a registered member to rate this.

Superman (Stimme im Original: John Krasinski) und sein ebenfalls mit Superkräften ausgestatteter Hund Krypto (Dwayne Johnson) sind beste Freunde und alles scheint perfekt, doch dann werden Superman und die anderen Mitglieder der Justice League von Lex Luthor (Marc Maron) ausgestrickst und gefangen genommen. Nun ist es an Krypto, die Justice League zu retten, weswegen er eine wilde Bande an Tierheim-Vierbeinern um sich schart, die durch einen mysteriösen Zwischenfall Superkräfte haben und erst einmal mit diesen zurechtkommen müssen: Hund Ace (Kevin Hart) ist superstark und unkaputtbar, Schwein BP (Vanessa Bayer) kann riesig groß werden, Schildkröte Merton (Natasha Lyonne) ist superschnell und Eichhörnchen Chip (Diego Luna) verfügt über Elektrokräfte. Gemeinsam wollen sie Lex Luthor ausschalten, doch der setzt ebenfalls Tiere mit besonderen Fähigkeiten ein…

Spoiler

_____________________________________________
//:::::::::::::::::::::::::::::::::::::::::::::\\
//:::_______:::::::::________::::::::::_____:::::::\\
//:::_/ _-“”:::_–“”” “””–_::::\_ ):::::::::\\
//:::/ /:::::_” “-_:::\/:::::|^\:::\\
//:::/ /~::::::I__ \:::::::::| \:::\\
\\:::\ (::::::::::””””—___________ “——–” /::://
\\:::\ |::::::::::::::::::::::::::::””””==____ /::://
\\:::”\/::::::::::::::::::::::::::::::::::::::\ /~::://
\\:::::::::::::::::::::::::::::::::::::::::::)/~::://
\\::::\””””””——_____::::::::::::::::::::::://
\\:::”\ “””””—–_____:::::://
\\:::”\ __—-__ )::://
\\:::”\/~::::::::~\_ __/~:://
\\::::::::::::::::””—-“””:::://
\\::::::::::::::::::::::::://
\\:::\^””–._.–“”^/::://
\\::”\ /”:://
\\::”\ /”:://
\\::”\_/”:://
\\::::://
\\_//

.
/|
____…,—.___..__,) |
,_.-._ ,._,.–””” ‘ ;
/ ‘-‘ ) /
,’_._. `_ ,’ :
`-. -. _ ‘ ;
)`-. `. /; ) ) ,’ /
‘. `. -. ( \ | =’ .’ ;
`. ‘-._+ .\= \.-‘-‘-.| ; / :’
`. \\ `- `.+’ ;
.-. `. ,-+,’ = _ (_ ; .’
; (_ /: =,( O\ O ).J
`. =`. ;’ =\ \ 7P ‘
`-. ‘-: .’ = \ \ (: 🙂 )
`–| ; = `.`. `==”./
; : `-`.__.’ )
: | ;
‘.’.= -. . +
,’`) := \ , / `.
) =| `. ,+-.-‘-+. ;.
; \: /| | ; `._ =)
: ( `-‘ | (/ SNE ; ;
( |; (: ) AK | :
`- / )| ; MAn ) |)
(_/ `-‘ `-‘

Sneakman pres.

———————————————–

Film : DC League of Super-Pets
Releasedate : 04.08.2022
Kinostart: 28. Juli 2022
VIDEO: x265 , 1920x1080P ,thx iDiOTS
AUDIO : GERMAN MIC AC3 DUBBED / ENGLISH
Runningtime : 1std45
IMDB : https://www.imdb.com/title/tt8912936/

Plot :

Krypto, der Superhund und Superman sind unzertrennliche beste Freunde,
die dieselben Superkräfte haben und Seite an Seite in Metropolis das Verbrechen
bekämpfen. Als jedoch der “Mann aus Stahl” und der Rest der Justice League von
Lex Luthor ausgetrickst und gefangen genommen werden, muss Krypto eine bunt
zusammengewürfelte Gruppe von Tieren davon überzeugen,
ihre eigenen neu entdeckten Kräfte für eine Rettungsmission zu beherrschen.

———————————————–

DC.League.of.Super-Pets.2022.German.MD.1080p.TELESYNC.x265-Sneakman.mkv

Format : Matroska
Format version : Version 4
File size : 4.28 GiB
Duration : 1 h 39 min
Overall bit rate : 6 169 kb/s
Writing application : mkvmerge v68.0.0 (‘The Curtain’) 64-bit
Writing library : libebml v1.4.2 + libmatroska v1.6.4 / Lavf58.76.100

Video
ID : 1
Format : HEVC
Format/Info : High Efficiency Video Coding
Format profile : Main [email protected]@High
Codec ID : V_MPEGH/ISO/HEVC
Duration : 1 h 39 min
Bit rate : 5 654 kb/s
Width : 1 920 pixels
Height : 1 080 pixels
Display aspect ratio : 16:9
Frame rate mode : Constant
Frame rate : 24.000 FPS
Color space : YUV
Chroma subsampling : 4:2:0
Bit depth : 10 bits
Bits/(Pixel*Frame) : 0.114
Stream size : 3.93 GiB (92%)
Writing library : x265 3.5+1-f0c1022b6:[Mac OS X][clang 13.0.0][32 bit] 10bit
Encoding settings : cpuid=2 / frame-threads=3 / wpp / no-pmode / no-pme / no-psnr / no-ssim / log-level=2 / input-csp=1 / input-res=1920×1080 / interlace=0 / total-frames=0 / level-idc=41 / high-tier=1 / uhd-bd=0 / ref=3 / no-allow-non-conformance / no-repeat-headers / annexb / no-aud / no-hrd / info / hash=0 / no-temporal-layers / open-gop / min-keyint=24 / keyint=240 / gop-lookahead=0 / bframes=4 / b-adapt=2 / b-pyramid / bframe-bias=0 / rc-lookahead=20 / lookahead-slices=6 / scenecut=40 / hist-scenecut=0 / radl=0 / no-splice / no-intra-refresh / ctu=64 / min-cu-size=8 / no-rect / no-amp / max-tu-size=32 / tu-inter-depth=1 / tu-intra-depth=1 / limit-tu=0 / rdoq-level=0 / dynamic-rd=0.00 / no-ssim-rd / signhide / no-tskip / nr-intra=0 / nr-inter=0 / no-constrained-intra / strong-intra-smoothing / max-merge=3 / limit-refs=1 / no-limit-modes / me=1 / subme=2 / merange=57 / temporal-mvp / no-frame-dup / no-hme / weightp / no-weightb / no-analyze-src-pics / deblock=0:0 / no-sao / no-sao-non-deblock / rd=3 / selective-sao=0 / early-skip / no-rskip / no-fast-intra / no-tskip-fast / no-cu-lossless / b-intra / no-splitrd-skip / rdpenalty=0 / psy-rd=4.00 / psy-rdoq=0.00 / no-rd-refine / no-lossless / cbqpoffs=0 / crqpoffs=0 / rc=crf / crf=20.0 / qcomp=0.60 / qpstep=1 / stats-write=0 / stats-read=0 / vbv-maxrate=50000 / vbv-bufsize=50000 / vbv-init=0.9 / min-vbv-fullness=50.0 / max-vbv-fullness=80.0 / crf-max=0.0 / crf-min=0.0 / ipratio=1.10 / pbratio=1.00 / aq-mode=0 / aq-strength=0.00 / no-cutree / zone-count=0 / no-strict-cbr / qg-size=64 / rc-grain / qpmax=69 / qpmin=0 / const-vbv / sar=1 / overscan=0 / videoformat=5 / range=0 / colorprim=1 / transfer=1 / colormatrix=1 / chromaloc=0 / display-window=0 / cll=0,0 / min-luma=0 / max-luma=1023 / log2-max-poc-lsb=8 / vui-timing-info / vui-hrd-info / slices=1 / no-opt-qp-pps / no-opt-ref-list-length-pps / no-multi-pass-opt-rps / scenecut-bias=0.05 / hist-threshold=0.03 / no-opt-cu-delta-qp / no-aq-motion / no-hdr10 / no-hdr10-opt / no-dhdr10-opt / no-idr-recovery-sei / analysis-reuse-level=0 / analysis-save-reuse-level=0 / analysis-load-reuse-level=0 / scale-factor=0 / refine-intra=0 / refine-inter=0 / refine-mv=1 / refine-ctu-distortion=0 / no-limit-sao / ctu-info=0 / no-lowpass-dct / refine-analysis-type=0 / copy-pic=1 / max-ausize-factor=1.0 / no-dynamic-refine / no-single-sei / no-hevc-aq / no-svt / no-field / qp-adaptation-range=1.00 / scenecut-aware-qp=0conformance-window-offsets / right=0 / bottom=0 / decoder-max-rate=0 / no-vbv-live-multi-pass
Default : Yes
Forced : No
Color range : Limited
Color primaries : BT.709
Transfer characteristics : BT.709
Matrix coefficients : BT.709

Audio #1
ID : 2
Format : AC-3
Format/Info : Audio Coding 3
Commercial name : Dolby Digital
Codec ID : A_AC3
Duration : 1 h 39 min
Bit rate mode : Constant
Bit rate : 320 kb/s
Channel(s) : 2 channels
Channel layout : L R
Sampling rate : 48.0 kHz
Frame rate : 31.250 FPS (1536 SPF)
Bit depth : 32 bits
Compression mode : Lossy
Stream size : 227 MiB (5%)
Title : english
Language : English
Service kind : Complete Main
Default : No
Forced : No

Audio #2
ID : 3
Format : E-AC-3
Format/Info : Enhanced AC-3
Commercial name : Dolby Digital Plus
Codec ID : A_EAC3
Duration : 1 h 39 min
Bit rate mode : Constant
Bit rate : 192 kb/s
Channel(s) : 2 channels
Channel layout : L R
Sampling rate : 48.0 kHz
Frame rate : 31.250 FPS (1536 SPF)
Compression mode : Lossy
Stream size : 136 MiB (3%)
Language : German
Service kind : Complete Main
Default : Yes
Forced : No

Text
ID : 4
Format : UTF-8
Codec ID : S_TEXT/UTF8
Codec ID/Info : UTF-8 Plain Text
Duration : 1 h 38 min
Bit rate : 55 b/s
Count of elements : 1666
Stream size : 40.4 KiB (0%)
Title : english
Language : English
Default : No
Forced : No

[collapse]


Dauer: 105 Min | Format: x265 | Größe: 4372 MB | IMDb: 7.8/10| YouTube | xRel

Tags »

Datum: Freitag, 5. August 2022 15:35
Trackback: Trackback-URL Themengebiet: +++Top Releases+++, Animation

Feed zum Beitrag: RSS 2.0 Diesen Artikel kommentieren

Kommentar abgeben

© 2020-2022 Movieblogarea.com | All Rights Reserved.