Die.Spur.des.Falken.1941.German.AC3D.DL.1080p.BluRay.x264-msd

0 votes, average: 0,00 out of 50 votes, average: 0,00 out of 50 votes, average: 0,00 out of 50 votes, average: 0,00 out of 50 votes, average: 0,00 out of 5 (0 votes, average: 0,00 out of 5)
You need to be a registered member to rate this.

Der Partner Sam Spades wird während der Überwachung eines Mannes namens Thursby erschossen. Als man wenig später auch Thursbys Leiche findet, gerät Spade selbst unter Mordverdacht. Er stellt fest, daß ihn seine Auftraggeberin Brigid belogen hat, und findet sich plötzlich in die Jagd nach einer kostbaren Falken-Statuette verwickelt, an der sich neben Brigid auch Gangsterboß Gutman und Einzelgänger Cairo beteiligen. Nachdem sich die Statuette, in deren Besitz Spade schließlich gelangt, als Fälschung erweist, sieht er sich gezwungen, alle anderen Beteiligten der Polizei auszuliefern, einschließlich Brigids, in die er sich zwar verliebt hat, bei der es sich aber um die Mörderin seines Partners und Thursbys handelt.

Bereits mit seinem ersten Film gelang es Regiedebütant John Huston, einen Klassiker des Film noir zu schaffen, der zugleich stilbildend auf das Genre einwirkte.

Spoiler

General
Unique ID : 206595347034293838089465775593439627870 (0x9B6CD1079D6081A2A9E5C64DFE880A5E)
Complete name : Die.Spur.des.Falken.1941.German.AC3D.DL.1080p.BluRay.x264-msd.mkv
Format : Matroska
Format version : Version 2
File size : 6.71 GiB
Duration : 1 h 40 min
Overall bit rate : 9 554 kb/s
Encoded date : UTC 2010-10-11 18:50:03
Writing application : mkvmerge v4.3.0 (‘Escape from the Island’) gebaut am Sep 5 2010 10:30:51
Writing library : libebml v1.0.0 + libmatroska v1.0.0

Video
ID : 1
Format : AVC
Format/Info : Advanced Video Codec
Format profile : [email protected]
Format settings, CABAC : Yes
Format settings, ReFrames : 4 frames
Codec ID : V_MPEG4/ISO/AVC
Duration : 1 h 40 min
Bit rate : 8 567 kb/s
Width : 1 488 pixels
Height : 1 080 pixels
Display aspect ratio : 1.378
Frame rate mode : Constant
Frame rate : 23.976 FPS
Color space : YUV
Chroma subsampling : 4:2:0
Bit depth : 8 bits
Scan type : Progressive
Bits/(Pixel*Frame) : 0.222
Stream size : 5.90 GiB (88%)
Writing library : x264 core 105 r1724 b02df7b
Encoding settings : cabac=1 / ref=4 / deblock=1:-1:-1 / analyse=0x3:0x113 / me=umh / subme=7 / psy=1 / psy_rd=1.00:0.00 / mixed_ref=1 / me_range=16 / chroma_me=1 / trellis=1 / 8x8dct=1 / cqm=0 / deadzone=21,11 / fast_pskip=1 / chroma_qp_offset=-2 / threads=12 / sliced_threads=0 / nr=0 / decimate=1 / interlaced=0 / constrained_intra=0 / bframes=3 / b_pyramid=2 / b_adapt=2 / b_bias=0 / direct=3 / weightb=1 / open_gop=0 / weightp=2 / keyint=250 / keyint_min=23 / scenecut=40 / intra_refresh=0 / rc_lookahead=40 / rc=2pass / mbtree=1 / bitrate=8567 / ratetol=1.0 / qcomp=0.60 / qpmin=10 / qpmax=51 / qpstep=4 / cplxblur=20.0 / qblur=0.5 / vbv_maxrate=50000 / vbv_bufsize=50000 / ip_ratio=1.40 / aq=1:1.00 / nal_hrd=none
Default : Yes
Forced : No

Audio #1
ID : 2
Format : DTS
Format/Info : Digital Theater Systems
Mode : 16
Format settings, Endianness : Big
Codec ID : A_DTS
Duration : 1 h 40 min
Bit rate mode : Constant
Bit rate : 768 kb/s
Channel(s) : 1 channel
Channel positions : Front: C
Sampling rate : 48.0 kHz
Frame rate : 93.750 FPS (512 spf)
Bit depth : 24 bits
Compression mode : Lossy
Stream size : 552 MiB (8%)
Language : English
Default : No
Forced : No

Audio #2
ID : 3
Format : AC-3
Format/Info : Audio Coding 3
Mode extension : CM (complete main)
Format settings, Endianness : Big
Codec ID : A_AC3
Duration : 1 h 40 min
Bit rate mode : Constant
Bit rate : 192 kb/s
Channel(s) : 1 channel
Channel positions : Front: C
Sampling rate : 48.0 kHz
Frame rate : 31.250 FPS (1536 spf)
Bit depth : 16 bits
Compression mode : Lossy
Stream size : 138 MiB (2%)
Language : German
Default : Yes
Forced : Yes

Text #1
ID : 4
Format : VobSub
Codec ID : S_VOBSUB
Codec ID/Info : Picture based subtitle format used on DVDs
Language : English
Default : No
Forced : No

Text #2
ID : 5
Format : VobSub
Codec ID : S_VOBSUB
Codec ID/Info : Picture based subtitle format used on DVDs
Language : German
Default : No
Forced : No

Menu
00:00:00.000 : en:(01)00:00:00:000
00:01:23.208 : en:(02)00:01:23:208
00:06:04.864 : en:(03)00:06:04:864
00:10:07.231 : en:(04)00:10:07:231
00:13:20.633 : en:(05)00:13:20:633
00:17:01.645 : en:(06)00:17:01:645
00:22:36.688 : en:(07)00:22:36:688
00:28:50.145 : en:(08)00:28:50:145
00:30:11.893 : en:(09)00:30:11:893
00:33:44.939 : en:(10)00:33:44:939
00:36:50.082 : en:(11)00:36:50:082
00:41:29.278 : en:(12)00:41:29:278
00:44:16.654 : en:(13)00:44:16:654
00:47:23.465 : en:(14)00:47:23:465
00:50:56.178 : en:(15)00:50:56:178
00:56:36.559 : en:(16)00:56:36:559
01:04:02.547 : en:(17)01:04:02:547
01:06:43.082 : en:(18)01:06:43:082
01:12:01.775 : en:(19)01:12:01:775
01:13:47.798 : en:(20)01:13:47:798
01:18:12.771 : en:(21)01:18:12:771
01:22:49.255 : en:(22)01:22:49:255
01:26:14.002 : en:(23)01:26:14:002
01:29:44.837 : en:(24)01:29:44:837
01:31:42.538 : en:(25)01:31:42:538
01:36:10.931 : en:(26)01:36:10:931
01:38:24.773 : en:(27)01:38:24:773
01:39:47.606 : en:(28)01:39:47:606
01:40:31.650 : en:(29)01:40:31:650

[collapse]


Dauer: 101 Min | Format: MKV | Größe: 6871 MB | IMDb: Die Spur des Falken| YouTube | xRel

Tags »

Datum: Mittwoch, 22. Juni 2022 18:38
Trackback: Trackback-URL Themengebiet: - HD-Filme, Drama

Feed zum Beitrag: RSS 2.0 Diesen Artikel kommentieren.
Pingen ist momentan nicht möglich.

Kommentar abgeben