Ekstase.1933.1080p.BluRay.DD2.0.x264-EA

0 votes, average: 0,00 out of 50 votes, average: 0,00 out of 50 votes, average: 0,00 out of 50 votes, average: 0,00 out of 50 votes, average: 0,00 out of 5 (0 votes, average: 0,00 out of 5)
You need to be a registered member to rate this.

Eva und Emil sind frisch verheiratet. Sie ist eine junge, hübsche Frau und er ist genau das Gegenteil von ihr, denn er ist alt, unattraktiv und hat keinen Sinn für Leidenschaft. Bereits auf der Hochzeitsreise vermutet Eva, dass sie in dieser Ehe nicht glücklich werden kann. Sie flüchtet aus der Ehe und fährt zu ihrem Vater aufs Land. Als sie dort den jungen Adam kennenlernt, erscheint Eva die Situation gar nicht mehr so schlimm. Doch Emil will seine junge Braut nicht so schnell aufgeben.

Spoiler

General
Unique ID : 86822602263050878662145075261696926578 (0x41516CC9D686500A239ED9B53E7C6372)
Complete name : Ekstase 1933 1080p BluRay DD2.0 x264-EA.mkv
Format : Matroska
Format version : Version 4 / Version 2
File size : 7.26 GiB
Duration : 1 h 30 min
Overall bit rate : 11.5 Mb/s
Movie name : Gustav Machat├╜ – Ekstase (1933)
Encoded date : UTC 2022-02-16 15:01:49
Writing application : mkvmerge v65.0.0 (‘Too Much’) 64-bit
Writing library : libebml v1.4.2 + libmatroska v1.6.4

Video
ID : 1
Format : AVC
Format/Info : Advanced Video Codec
Format profile : [email protected]
Format settings : CABAC / 6 Ref Frames
Format settings, CABAC : Yes
Format settings, ReFrames : 6 frames
Codec ID : V_MPEG4/ISO/AVC
Duration : 1 h 30 min
Bit rate : 11.1 Mb/s
Width : 1 240 pixels
Height : 1 036 pixels
Display aspect ratio : 1.197
Frame rate mode : Constant
Frame rate : 24.000 FPS
Color space : YUV
Chroma subsampling : 4:2:0
Bit depth : 8 bits
Scan type : Progressive
Bits/(Pixel*Frame) : 0.361
Stream size : 7.02 GiB (97%)
Title : -EA
Writing library : x264 core 164 r3085+55M 938b6d0 t_mod_New [(8 & 10)[email protected] X86_64]
Encoding settings : cabac=1 / ref=6 / deblock=1:-3:-3 / analyse=0x3:0x133 / me=umh / subme=10 / psy=1 / fade_compensate=0.00 / psy_rd=1.06:0.00 / mixed_ref=1 / me_range=32 / chroma_me=1 / trellis=2 / 8x8dct=1 / cqm=0 / deadzone=21,11 / fast_pskip=0 / chroma_qp_offset=-2 / threads=18 / lookahead_threads=4 / sliced_threads=0 / nr=0 / decimate=0 / interlaced=0 / bluray_compat=0 / constrained_intra=0 / fgo=0 / bframes=13 / b_pyramid=2 / b_adapt=2 / b_bias=0 / direct=3 / weightb=1 / open_gop=0 / weightp=2 / keyint=240 / keyint_min=24 / scenecut=40 / intra_refresh=0 / rc_lookahead=60 / rc=crf / mbtree=0 / crf=21.8500 / qcomp=0.65 / qpmin=0:0:0 / qpmax=69:69:69 / qpstep=4 / vbv_maxrate=62500 / vbv_bufsize=78125 / crf_max=0.0 / nal_hrd=none / filler=0 / ip_ratio=1.30 / pb_ratio=1.20 / aq=3:0.75 / aq-sensitivity=10.00 / aq-factor=1.00:1.00:1.00 / aq2=0 / aq3=0
Language : German
Default : Yes
Forced : No
Color range : Limited
Color primaries : BT.709
Transfer characteristics : BT.709
Matrix coefficients : BT.709

Audio
ID : 2
Format : AC-3
Format/Info : Audio Coding 3
Codec ID : A_AC3
Duration : 1 h 30 min
Bit rate mode : Constant
Bit rate : 384 kb/s
Channel(s) : 2 channels
Channel positions : Front: L R
Sampling rate : 48.0 kHz
Frame rate : 31.250 FPS (1536 SPF)
Bit depth : 16 bits
Compression mode : Lossy
Stream size : 248 MiB (3%)
Language : German
Service kind : Complete Main
Default : Yes
Forced : No

Text #1
ID : 3
Format : UTF-8
Codec ID : S_TEXT/UTF8
Codec ID/Info : UTF-8 Plain Text
Duration : 1 h 21 min
Bit rate : 7 b/s
Count of elements : 140
Stream size : 4.16 KiB (0%)
Title : srt
Language : English
Default : Yes
Forced : No

Text #2
ID : 4
Format : PGS
Muxing mode : zlib
Codec ID : S_HDMV/PGS
Codec ID/Info : Picture based subtitle format used on BDs/HD-DVDs
Duration : 1 h 21 min
Bit rate : 3 125 b/s
Count of elements : 281
Stream size : 1.81 MiB (0%)
Title : sup
Language : English
Default : No
Forced : No

Text #3
ID : 5
Format : PGS
Muxing mode : zlib
Codec ID : S_HDMV/PGS
Codec ID/Info : Picture based subtitle format used on BDs/HD-DVDs
Duration : 1 h 21 min
Bit rate : 2 347 b/s
Count of elements : 263
Stream size : 1.36 MiB (0%)
Title : sup
Language : German
Default : No
Forced : No

Menu
00:00:00.000 : :Chapter 01
00:08:00.000 : :Chapter 02
00:16:00.000 : :Chapter 03
00:23:59.958 : :Chapter 04
00:32:00.000 : :Chapter 05
00:40:00.000 : :Chapter 06
00:47:59.958 : :Chapter 07
00:56:00.000 : :Chapter 08
01:03:59.958 : :Chapter 09
01:12:00.000 : :Chapter 10
01:20:00.000 : :Chapter 11
01:27:59.958 : :Chapter 12

[collapse]


Dauer: | Format: MKV | Größe: 7435 MB | IMDb: Ekstase| YouTube | xRel

Tags »

Datum: Montag, 20. Juni 2022 22:00
Trackback: Trackback-URL Themengebiet: - HD-Filme, Drama

Feed zum Beitrag: RSS 2.0 Diesen Artikel kommentieren.
Pingen ist momentan nicht möglich.

Ein Kommentar

  1. 1

    Danke sehr DudeZumHD 🙂

Kommentar abgeben