Birth.2004.German.DD20D.DL.1080p.Amazon.WEB-DL.x264-Mooi1990

0 votes, average: 0,00 out of 50 votes, average: 0,00 out of 50 votes, average: 0,00 out of 50 votes, average: 0,00 out of 50 votes, average: 0,00 out of 5 (0 votes, average: 0,00 out of 5)
You need to be a registered member to rate this.

Nach zehn Jahren Trauerarbeit hat die schöne New Yorkerin Anna den Tod ihres Ehemannes Sean endlich verwunden und gedenkt, den steifen, gebildeten Joseph zu ehelichen. Da taucht auf der Geburtstagsfeier ihrer Mutter ein zehnjähriger Junge auf, der mit Anna sprechen will. Unter vier Augen vertraut er ihr an, dass er ihr verstorbener Ehemann sei. Als der Bub nach und nach intime Details preisgibt, die nur Sean wissen kann, wächst in Anna der Verdacht und zugleich die Hoffnung, der Dreikäsehoch könnte tatsächlich ihr geliebter Gatte sein.

Mysteriöses Drama um eine Witwe, der sich ein Zehnjähriger als Reinkarnation ihres verstorbenen Mannes präsentiert.

Spoiler

General
Unique ID : 78199768804411665314208894232472486157 (0x3AD4BA468392626F625EBD536E810D)
Complete name : ./No1905-80.mkv
Format : Matroska
Format version : Version 4 / Version 2
File size : 9.36 GiB
Duration : 1h 40mn
Overall bit rate mode : Variable
Overall bit rate : 13.4 Mbps
Writing application : mkvmerge v9.2.0 (‘Photograph’) 64bit
Writing library : libebml v1.3.3 + libmatroska v1.4.4
DURATION : 01:37:00.648000000
NUMBER_OF_FRAMES : 847
NUMBER_OF_BYTES : 21422
STATISTICS_WRITING_A : mkvmerge v9.2.0 (‘Photograph’) 64bit
STATISTICS_TAGS : BPS DURATION NUMBER_OF_FRAMES NUMBER_OF_BYTES
Attachment : Yes

Video
ID : 1
Format : AVC
Format/Info : Advanced Video Codec
Format profile : [email protected]
Format settings, CABAC : Yes
Format settings, ReFrames : 4 frames
Codec ID : V_MPEG4/ISO/AVC
Duration : 1h 40mn
Bit rate mode : Variable
Bit rate : 12.3 Mbps
Maximum bit rate : 15.0 Mbps
Width : 1 920 pixels
Height : 1 040 pixels
Display aspect ratio : 1.85:1
Frame rate mode : Constant
Frame rate : 23.976 fps
Color space : YUV
Chroma subsampling : 4:2:0
Bit depth : 8 bits
Scan type : Progressive
Bits/(Pixel*Frame) : 0.257
Stream size : 8.59 GiB (92%)
Writing library : x264 core 148 r2623 d5b2374
Encoding settings : cabac=1 / ref=4 / deblock=1:-1:-1 / analyse=0x3:0x133 / me=umh / subme=9 / psy=1
/ psy_rd=1.00:0.15 / mixed_ref=1 / me_range=24 / chroma_me=1 / trellis=2 / 8x8dct=1 / cqm=0 /
deadzone=21,11 / fast_pskip=1 / chroma_qp_offset=-3 / threads=32 / lookahead_threads=5 /
sliced_threads=0 / nr=150 / decimate=1 / interlaced=0 / bluray_compat=0 / constrained_intra=0 /
bframes=8 / b_pyramid=2 / b_adapt=2 / b_bias=0 / direct=3 / weightb=1 / open_gop=0 / weightp=2 /
keyint=120 / keyint_min=61 / scenecut=0 / intra_refresh=0 / rc_lookahead=120 / rc=crf / mbtree=1 /
crf=18.0 / qcomp=0.60 / qpmin=0 / qpmax=69 / qpstep=4 / vbv_maxrate=15000 / vbv_bufsize=31250 /
crf_max=0.0 / nal_hrd=vbr / filler=0 / ip_ratio=1.40 / aq=3:1.00
Default : Yes
Forced : No
Color primaries : BT.709
Transfer characteristics : BT.709
Matrix coefficients : BT.709

Audio #1
ID : 2
Format : AC-3
Format/Info : Audio Coding 3
Mode extension : CM (complete main)
Format settings, Endianness : Big
Codec ID : A_AC3
Duration : 1h 40mn
Bit rate mode : Constant
Bit rate : 192 Kbps
Channel(s) : 2 channels
Channel positions : Front: L R
Sampling rate : 48.0 KHz
Bit depth : 16 bits
Compression mode : Lossy
Stream size : 137 MiB (1%)
Title : Deutsch Stereo – DVD
Language : German
Default : Yes
Forced : No

Audio #2
ID : 3
Format : E-AC-3
Format/Info : Audio Coding 3
Format settings, Endianness : Big
Codec ID : A_EAC3
Duration : 1h 40mn
Bit rate mode : Constant
Bit rate : 640 Kbps
Channel(s) : 6 channels
Channel positions : Front: L C R, Side: L R, LFE
Sampling rate : 48.0 KHz
Compression mode : Lossy
Stream size : 458 MiB (5%)
Title : Englisch Surround 5.1 – Amazon
Language : English
Default : No
Forced : No

Text #1
ID : 4
Format : UTF-8
Codec ID : S_TEXT/UTF8
Codec ID/Info : UTF-8 Plain Text
Title : Englisch FU – Amazon
Language : English
Default : Yes
Forced : No

Text #2
ID : 5
Format : UTF-8
Codec ID : S_TEXT/UTF8
Codec ID/Info : UTF-8 Plain Text
Title : Englisch FU SDH – Amazon
Language : English
Default : No
Forced : No

[collapse]


Dauer: 100 Min | Format: MKV | Größe: 9586 MB | IMDb: Birth| YouTube | xRel

Tags »

Datum: Donnerstag, 9. Juni 2022 23:09
Trackback: Trackback-URL Themengebiet: - HD-Filme, - P2P, Drama

Feed zum Beitrag: RSS 2.0 Diesen Artikel kommentieren.
Pingen ist momentan nicht möglich.

Ein Kommentar

  1. 1

    supi ihr habt mir top geholfen. FETTES DANKESCHÖN!

Kommentar abgeben